Профиль

Статистика

Онлайн

:: Детали торрента
Загрузка на 100 % не учитывается
Фильмы SATRipЗарегистрируйтесь чтобы скачать.
Хэш релиза0463145145db0bbd41647bd84301d34ec6ad1963
Постер
ОписаниеНазвание: Бетховен 4
Оригинальное название: Beethoven's 4th
Год выхода: 2001
Страна: США
Студия: Universal Family and Home Entertainment, Universal Pictures
Продолжительность: 01:38:15
Жанр: комедия, семейный


Режиссер: Дэвид М. Эванс
В ролях: Джадж Райнхолд, Джулия Суини, Джо Пихлер, Михаэлла Галло, Мэтт МакКой, Винни Кокс, Марк Линдсэй Чэпман, Ник Мини, Натали Марстон, ...

Перевод:
- Профессиональный (многоголосый, закадровый) DVD от «Premier Digital»
- Профессиональный (многоголосый, закадровый) СТС
- Субтитры

О фильме: Шумная семейка Ньютонов уже давно привыкла к выходкам весельчака Бетховена, но внезапного превращения оного в изысканную и отменно дрессированную собаку, они никак не ожидали! Все началось с того, что во время обычной прогулки в парке старина Бетховен встретился с сенбернаром по кличке Микеланджело, похожим на него, как две капли воды. В отличие от нашего озорника-приятеля, Микеланджело оказался образцовым псом с прекрасными манерами. И вот случается так, что два красавца-пса решают поменяться местами! Уморительный увалень Ньютонов вдруг преобразится в дисциплинированного, «показательного» пса. Ну а Бетховен, в свою очередь, задаст «жару» своим новым хозяевам — эстетствующей семье Седжвиков!…

http://s.rutor.info/imdb/pic/0294345.gif http://www.kinopoisk.ru/rating/9749.gif


Кодек: MPEG4/ISO/AVC
Качество: WEB-DL 1080p / AMZN
Видео: 1920x1080, 10200 kbps, 23,976 fps
Аудио #1: AC-3, 2 ch, 192 kbps (Rus) - MVO DVD «Premier Digital»
Аудио #2: AC-3, 2 ch, 192 kbps (Rus) - MVO СТС (SATRip)
Аудио #3: AC-3, 6 ch, 640 kbps (Eng)
Субтитры: русские, английские

MediaInfo

Общее
Уникальный идентификатор : 241204976426209605946895250764221977969 (0xB5766380C21EA976B94A6CC9DB011571)
Полное имя : Бетховен 4 (Beethoven's 4th) 2001 WEB-DL 1080p.mkv
Формат : Matroska
Версия формата : Version 2
Размер файла : 7,52 Гбайт
Продолжительность : 1 ч. 33 м.
Режим общего битрейта : Переменный
Общий поток : 11,5 Мбит/сек
Дата кодирования : UTC 2017-11-10 12:44:45
Программа кодирования : mkvmerge v4.0.0 ('The Stars were mine') сборка от Jun 6 2010 16:18:42
Библиотека кодирования : libebml v1.0.0 + libmatroska v1.0.0

Видео
Идентификатор : 1
Формат : AVC
Формат/Информация : Advanced Video Codec
Профиль формата : High@L4
Параметр CABAC формата : Да
Параметр ReFrames формата : 4 кадра
Идентификатор кодека : V_MPEG4/ISO/AVC
Продолжительность : 1 ч. 33 м.
Вид битрейта : Переменный
Битрейт : 10,2 Мбит/сек
Максимальный битрейт : 15,0 Мбит/сек
Ширина : 1920 пикселей
Высота : 1080 пикселей
Соотношение сторон : 16:9
Режим частоты кадров : Постоянный
Частота кадров : 23,976 (24000/1001) кадра/сек
Цветовое пространство : YUV
Субдискретизация насыщенности : 4:2:0
Битовая глубина : 8 бит
Тип развёртки : Прогрессивная
Бит/(Пиксели*Кадры) : 0.206
Размер потока : 6,70 Гбайт (89%)
Язык : English
Default : Нет
Forced : Нет
Цветовой диапазон : Limited
Основные цвета : BT.709
Характеристики трансфера : BT.709
Коэффициенты матрицы : BT.709

Аудио #1
Идентификатор : 2
Формат : AC-3
Формат/Информация : Audio Coding 3
Расширение режима : CM (complete main)
Параметр Endianness формата : Big
Идентификатор кодека : A_AC3
Продолжительность : 1 ч. 33 м.
Вид битрейта : Постоянный
Битрейт : 192 Кбит/сек
Каналы : 2 канала
Расположение каналов : Front: L R
Частота : 48,0 КГц
Частота кадров : 31,250 кадров/сек (1536 spf)
Метод сжатия : С потерями
Размер потока : 129 Мбайт (2%)
Заголовок : MVO DVD «Premier Digital»
Язык : Russian
Default : Нет
Forced : Нет

Аудио #2
Идентификатор : 3
Формат : AC-3
Формат/Информация : Audio Coding 3
Расширение режима : CM (complete main)
Параметр Endianness формата : Big
Идентификатор кодека : A_AC3
Продолжительность : 1 ч. 33 м.
Вид битрейта : Постоянный
Битрейт : 192 Кбит/сек
Каналы : 2 канала
Расположение каналов : Front: L R
Частота : 48,0 КГц
Частота кадров : 31,250 кадров/сек (1536 spf)
Метод сжатия : С потерями
Размер потока : 129 Мбайт (2%)
Заголовок : MVO СТС (SATRip)
Язык : Russian
Default : Нет
Forced : Нет

Аудио #3
Идентификатор : 4
Формат : AC-3
Формат/Информация : Audio Coding 3
Расширение режима : CM (complete main)
Параметр Endianness формата : Big
Идентификатор кодека : A_AC3
Продолжительность : 1 ч. 33 м.
Вид битрейта : Постоянный
Битрейт : 640 Кбит/сек
Каналы : 6 каналов
Расположение каналов : Front: L C R, Side: L R, LFE
Частота : 48,0 КГц
Частота кадров : 31,250 кадров/сек (1536 spf)
Метод сжатия : С потерями
Размер потока : 429 Мбайт (6%)
Язык : English
Default : Нет
Forced : Нет

Текст #1
Идентификатор : 5
Формат : UTF-8
Идентификатор кодека : S_TEXT/UTF8
Идентификатор кодека/Информация : UTF-8 Plain Text
Язык : Russian
Default : Нет
Forced : Нет

Текст #2
Идентификатор : 6
Формат : UTF-8
Идентификатор кодека : S_TEXT/UTF8
Идентификатор кодека/Информация : UTF-8 Plain Text
Заголовок : SDH
Язык : English
Default : Нет
Forced : Нет




Скриншоты:

http://i053.radikal.ru/1711/29/04229130c5d1.png   http://s019.radikal.ru/i604/1711/70/37e7cf5ad287.png   http://s018.radikal.ru/i520/1711/32/54b32d1d41f5.png   http://s010.radikal.ru/i313/1711/0d/b9fe188935e7.png
http://s014.radikal.ru/i328/1711/a6/3b1aac9ca898.png   http://i057.radikal.ru/1711/53/eff81a1d5734.png   http://s018.radikal.ru/i500/1711/6a/25969f1fcb07.png   http://s019.radikal.ru/i610/1711/de/38e65930a643.png



ТипФильмы SATRip
Тэгикомедия семейный
РаздающийПоследний раз был здесь 13d 18:12:14 назад
Размер7.52 GB (8,072,802,907 байт)
Репутация +100
Добавлен2017-11-11 01:32:59
Просмотров36
* Похожие торрентыПосмотреть похожие торренты
Взят0
Скачан0 раз
18 раздающих, 25 качающих = 43 пиров
Данные о торрентеПоказать данные
Поделись ссылкой с Друзьями !

:: Список комментариев
Комментариев нет. Желаете добавить?

 :: Без комментариев

  • Яндекс.Метрика
  • Powered by TBDev YSE Pre 6 RC 0 v2.1.12