Профиль

Статистика

Онлайн

:: Детали торрента
Загрузка на 100 % не учитывается
Фильмы SATRipЗарегистрируйтесь чтобы скачать.
Хэш релиза8936fece91de5d8771cad5c6db55584862ed32f7
Постер
ОписаниеИнформация о фильме
Название: Явная ложь
Оригинальное название: Thumper

Год выхода: 2017
Жанр: Триллер, драма, криминал

Режиссер: Джордан Росс
В ролях: Элайза Тейлор, Лина Хиди, Пабло Шрайбер, Бен Фельдман, Даниэль Уэббер, Грант Уитни Харви, Бретт Райс, Бриджитт Кали, Бритен Далтон, Мика Паркер и другие
О фильме:
Подростки неблагополучного района начинают работать на местного и опасного торговца наркотиками. Когда в город прибывает новая девушка, скрывающая тайну, их отношения ставят под угрозу весь бизнес.

http://s.rutor.info/imdb/pic/5716380.gif http://www.kinopoisk.ru/rating/981989.gif


Страна: США, Automatik Entertainment, Exhibit, Parliament of Owls
Продолжительность: 01:33:20
Перевод: Любительский (двухголосый закадровый) | RecentFilms

Файл
Кодек: MPEG-4 AVC/H.264
Качество: WEBRip 720p
Видео: 1280x720, 23,976 fps, ~3797 Kbps, 0.172 bit/pixel
Звук:
Аудио rus: AC3, 48 kHz, 2 ch, 192 Kbps
Субтитры: отсутствуют

Реклама: присутствует

Семпл

MediaInfo:


General
Unique ID                                : 230710403960900218134840108758266532358 (0xAD913521CCCDE79F96358CAEE3C3D206)
Complete name                            : F:FilmsThumper.2017.720p.WEBRip.RecentFilmsThumper.2017.720p.WEBRip.RecentFilms.mkv
Format                                   : Matroska
Format version                           : Version 4 / Version 2
File size                                : 2.60 GiB
Duration                                 : 1h 33mn
Overall bit rate                         : 3 990 Kbps
Encoded date                             : UTC 2017-11-09 17:16:10
Writing application                      : mkvmerge v17.0.0 ('Be Ur Friend') 64-bit
Writing library                          : libebml v1.3.5 + libmatroska v1.4.8

Video
ID                                       : 1
Format                                   : AVC
Format/Info                              : Advanced Video Codec
Format profile                           : High@L3
Format settings, CABAC                   : No
Format settings, ReFrames                : 1 frame
Codec ID                                 : V_MPEG4/ISO/AVC
Duration                                 : 1h 33mn
Bit rate                                 : 3 797 Kbps
Width                                    : 1 280 pixels
Height                                   : 720 pixels
Display aspect ratio                     : 16:9
Frame rate mode                          : Constant
Frame rate                               : 23.976 (24000/1001) fps
Original frame rate                      : 23.976 (23976/1000) fps
Color space                              : YUV
Chroma subsampling                       : 4:2:0
Bit depth                                : 8 bits
Scan type                                : Progressive
Bits/(Pixel*Frame)                       : 0.172
Stream size                              : 2.47 GiB (95%)
Writing library                          : x264 core 148 r2665 a01e339
Encoding settings                        : cabac=0 / ref=1 / deblock=1:0:0 / analyse=0x3:0x113 / me=hex / subme=7 / psy=1 / psy_rd=1.00:0.00 / mixed_ref=0 / me_range=16 / chroma_me=1 / trellis=1 / 8x8dct=1 / cqm=0 / deadzone=21,11 / fast_pskip=1 / chroma_qp_offset=-2 / threads=12 / lookahead_threads=2 / sliced_threads=0 / nr=0 / decimate=1 / interlaced=0 / bluray_compat=0 / constrained_intra=0 / bframes=0 / weightp=2 / keyint=250 / keyint_min=23 / scenecut=40 / intra_refresh=0 / rc_lookahead=40 / rc=abr / mbtree=1 / bitrate=3797 / ratetol=1.0 / qcomp=0.60 / qpmin=0 / qpmax=69 / qpstep=4 / ip_ratio=1.40 / aq=1:1.00
Default                                  : Yes
Forced                                   : No

Audio
ID                                       : 2
Format                                   : AC-3
Format/Info                              : Audio Coding 3
Mode extension                           : CM (complete main)
Format settings, Endianness              : Big
Codec ID                                 : A_AC3
Duration                                 : 1h 33mn
Bit rate mode                            : Constant
Bit rate                                 : 192 Kbps
Channel(s)                               : 2 channels
Channel positions                        : Front: L R
Sampling rate                            : 48.0 KHz
Frame rate                               : 31.250 fps (1536 spf)
Compression mode                         : Lossy
Stream size                              : 128 MiB (5%)
Default                                  : Yes
Forced                                   : No


Скриншоты


http://s019.radikal.ru/i618/1711/16/6f10e9d1d195.jpg   http://s019.radikal.ru/i629/1711/e6/5d9453cdfc42.jpg   http://s019.radikal.ru/i634/1711/3a/4489090cf19d.jpg   http://s018.radikal.ru/i505/1711/25/dcb24b769177.jpg


ТипФильмы SATRip
Тэгитриллер, драма, криминал
РаздающийПоследний раз был здесь 14d 17:21:51 назад
Размер2.60 GB (2,792,739,886 байт)
Репутация +100
Добавлен2017-11-10 02:29:35
Просмотров17
Взят0
Скачан0 раз
0 раздающих, 0 качающих = 0 пиров
Данные о торрентеПоказать данные
Поделись ссылкой с Друзьями !

:: Список комментариев
Комментариев нет. Желаете добавить?

 :: Без комментариев

  • Яндекс.Метрика
  • Powered by TBDev YSE Pre 6 RC 0 v2.1.12