Профиль

Статистика

Онлайн

:: Детали торрента
Загрузка на 100 % не учитывается
Фильмы SATRipЗарегистрируйтесь чтобы скачать.
Хэш релизаbf2866b81ddfa8c65e7d225fb27ac1aca13e6031
Постер
ОписаниеИнформация о фильме
Название: Фотография Джойи / Бред
Оригинальное название: Le foto di Gioia / Delirium
Год выхода: 1987
Жанр:  ужасы, триллер, детектив
Режиссер: Ламберто Бава
В ролях: Серена Гранди, Дария Николоди, Ванни Корбеллини, Дэвид Брэндон, Джордж Истмен, Трине Микельсен, Карл Синни, Лино Салемме, Сабрина Салерно, Капюсин и др.

О фильме :
Фильм о безумце, который впадает в реку истерии, разрушения и террора, убивая моделей порнографического журнала «Pussycat» и развешивая фотографии их изуродованных тел у себя в комнате. Он является поклонником бывшей модели этого журнала, а теперь владелицы, Джои, из чьих фотографий он делает ужасные коллажи. Он посылает их в редакцию журнала. В дело вмешивается полиция, и, естественно, практически каждый персонаж картины становится подозреваемым…

http://s.rutor.info/imdb/pic/0093043.gif http://www.kinopoisk.ru/rating/175550.gif

Страна: Италия
Продолжительность: 01:33:45
Перевод: Любительский (одноголосый закадровый) диктор "Horror Club"

Файл
Формат: MKV
Качество: BDRip-AVC (BDRemux 1080p)
Видео: MPEG-4 AVC, 752x408, ~ 1035 Кбит/с
Аудио: http://i93.fastpic.ru/big/2017/0727/c0/4b72f0369a3393219ed5935e91fc15c0.gif  AAC-LC, 2 ch, ~ 76 Кбит/с

MI

Общее
Уникальный идентификатор : 172537215063473679785198230108014795228 (0x81CD757A8C6DA1D5A0BF3E72B90659DC)
Полное имя : D:MOVIESDelirium.1987.ExKinoRay.mkv
Формат : Matroska
Версия формата : Version 4 / Version 2
Размер файла : 746 Мбайт
Продолжительность : 1 ч. 33 м.
Общий поток : 1113 Кбит/сек
Дата кодирования : UTC 2017-10-22 05:42:56
Программа кодирования : mkvmerge v15.0.0 ('Duel with the Devil') 64-bit
Библиотека кодирования : libebml v1.3.5 + libmatroska v1.4.5

Видео
Идентификатор : 1
Формат : AVC
Формат/Информация : Advanced Video Codec
Профиль формата : High@L4.1
Параметр CABAC формата : Да
Параметр RefFrames формата : 10 кадров
Идентификатор кодека : V_MPEG4/ISO/AVC
Продолжительность : 1 ч. 33 м.
Битрейт : 1035 Кбит/сек
Ширина : 752 пикселя
Высота : 408 пикселей
Соотношение сторон : 1,85:1
Режим частоты кадров : Постоянный
Частота кадров : 23,976 (24000/1001) кадра/сек
Цветовое пространство : YUV
Субдискретизация насыщенности : 4:2:0
Битовая глубина : 8 бит
Тип развёртки : Прогрессивная
Бит/(Пиксели*Кадры) : 0.141
Размер потока : 694 Мбайт (93%)
Библиотека кодирования : x264 core 152 r2851kMod ba24899
Настройки программы : cabac=1 / ref=10 / deblock=1:-3:-2 / analyse=0x3:0x133 / me=umh / subme=11 / psy=1 / fade_compensate=0.00 / psy_rd=1.00:0.15 / mixed_ref=1 / me_range=32 / chroma_me=1 / trellis=2 / 8x8dct=1 / cqm=0 / deadzone=21,11 / fast_pskip=0 / chroma_qp_offset=-3 / threads=6 / lookahead_threads=1 / sliced_threads=0 / nr=0 / decimate=0 / interlaced=0 / bluray_compat=0 / constrained_intra=0 / bframes=10 / b_pyramid=2 / b_adapt=2 / b_bias=0 / direct=3 / weightb=1 / open_gop=0 / weightp=2 / keyint=240 / keyint_min=23 / scenecut=40 / intra_refresh=0 / rc_lookahead=40 / rc=2pass / mbtree=1 / bitrate=1035 / ratetol=1.0 / qcomp=0.60 / qpmin=0 / qpmax=69 / qpstep=4 / cplxblur=20.0 / qblur=0.5 / vbv_maxrate=50000 / vbv_bufsize=62500 / nal_hrd=none / filler=0 / ip_ratio=1.40 / aq=3:1.00
Default : Да
Forced : Нет

Аудио
Идентификатор : 2
Формат : AAC
Формат/Информация : Advanced Audio Codec
Профиль формата : LC
Идентификатор кодека : A_AAC
Продолжительность : 1 ч. 33 м.
Битрейт : 76,0 Кбит/сек
Каналы : 2 канала
Расположение каналов : Front: L R
Частота : 48,0 КГц
Частота кадров : 46,875 кадров/сек (1024 SPF)
Метод сжатия : С потерями
Задержка видео : 9 мс.
Размер потока : 51,0 Мбайт (7%)
Язык : Russian
Default : Да
Forced : Нет

Меню
00:00:00.000 : en:Chapter 1
00:12:37.840 : en:Chapter 2
00:24:33.805 : en:Chapter 3
00:37:16.901 : en:Chapter 4
00:48:44.212 : en:Chapter 5
00:59:17.845 : en:Chapter 6
01:10:31.769 : en:Chapter 7
01:21:43.815 : en:Chapter 8

Скриншоты

http://i91.fastpic.ru/big/2017/1022/eb/2f4db65636883563599359dd242e5aeb.jpg   http://i91.fastpic.ru/big/2017/1022/fc/7853e84c2169b544b306f2ff50e8cefc.jpg   http://i89.fastpic.ru/big/2017/1022/22/a5eb86fdd5198fcb55227351bf6d8b22.jpg   http://i89.fastpic.ru/big/2017/1022/60/bd3df086736cbff68e49963dc5dbd560.jpg

http://i89.fastpic.ru/big/2017/1022/6a/76bc2afd5d7b2e533cd077ddee29f26a.jpg   http://i91.fastpic.ru/big/2017/1022/55/269ecf67e97155fc0a2866e1603a8755.jpg   http://i89.fastpic.ru/big/2017/1022/a1/5305f5c01283ef364fb972628edd15a1.jpg   http://i93.fastpic.ru/big/2017/1022/c8/c5ece04f7c021239fddd29d70e185bc8.jpg
ТипФильмы SATRip
Тэгиужасы, триллер, детектив
РаздающийПоследний раз был здесь 32d 22:08:40 назад
Размер746.27 MB (782,523,642 байт)
Репутация +100
Добавлен2017-10-22 21:43:14
Просмотров28
Взят0
Скачан0 раз
0 раздающих, 0 качающих = 0 пиров
Данные о торрентеПоказать данные
Поделись ссылкой с Друзьями !

:: Список комментариев
Комментариев нет. Желаете добавить?

 :: Без комментариев

  • Яндекс.Метрика
  • Powered by TBDev YSE Pre 6 RC 0 v2.1.12